&title=[宴] jelly
&artist=capsule [cover]
&wholebpm=128.66
&demo_seek=61.7
&demo_len=14.3
&lv_7=宴
&inote_7=(128.66){1},
{8},5,4,3,2,,
{961}1,,,,,,,,,,,,,,,,,,,,,,,,,,,,,,,,,,,,,,,,,,,,,,,,,,,,,,,,,,,,,,,,,,,,,,,,,,,,,,,,,,,,,,,,,,,,,,,,,,,,,,,,,,,,,,,,,,,,,,,,,,,,,,,,,,,,,,,,,,,,,,,,,,,,,,,,,,,,,,,,,,,,,,,,,,,,,,,,,,,,,,,,,,,,,,,,,,,,,,,,,,,,,,,,,,,,,,,,,,,,,,,,,,,,,,,,,,,,,,,
{769}6h[1923:1928],
{8},,2,,3,4,3,4,
{8},4,5,6,7,,8,,
{8}3h[1:1],,7,,6,5,6,5,
{8},8,6,7,5,,3/1,,
{8}7h[1:1],,1,,2,5,3,4,
{8},1,3,2,4,,8/6,,
{8}7,6,7,6,3,4,5,7,
{8}8,1,2,3,3^8[4:1]/7^4[4:1],,,,
{16},,,,4,,,,1,,2,3h[4:1],,,,,
{16}4,,,,5,,,,8,,7,6h[4:1],,,,,
{16}7,,6,,5,,,,1,,2,3h[4:1],,,,,
{16}2,,3,,4,,,,8,,7,6h[4:1],,,,,
{16}1,,,,3,,2,,4,,3,5h[4:1],,,,,
{16}8,,,,6,,7,,5,,6,4h[4:1],,,,,
{16}7,,6/8,,7,,8/6,,5,,4,3h[4:1],,,,,
{16}2,,3/1,,2,,3/1,,4,,
{1000}5,,,,,,,,,,,,,,,,,,,,,,,,,,,,,,,,,,,,,,,,,,,,,,,,,,,,,,,,,,,,,,,1h[2000:499],,,,,,,,,,,,,,,,,,,,,,,,,,,,,,,,,,,,,,,,,,,,,,,,,,,,,,,,,,,,,,,,,,,,,,,,,,,,,,,,,,,,,,,,,,,,,,,,,,,,,,,,,,,,,,,,,,,,,,,,,,,,,,,,,,,,,,,,,,,,,,,,,,,,,,,,,,,,,,,,,,,,,,,,,,,,,,,,,,,,,,,,,,,,,,,,,,,,,,,,,,,,,,,,,,,,,,,,,,,,,,,,,,,,,,,,,,,,,,,,,,,,,,,,,,,,,,,,,,,,,,,,,,,,,,,,,,,,,,,,,,,,,,,,,,,,,,,,,,,,,,,,,,,,,,,,
{8}1/7b,8,1,2,3,,6/5,,
{8}2/8,1,8,7,6,,4/3,,
{8}2/7,1,8,2,6,,1/8,,
{8}3/6,4,5,2,7,,2,6,
{8}1/8,1/2,8/7,3/6,5/4,,1/8,,
{8}2/4,3,1,2,3/5,,4/1,,
{8}7/5,6,8,7,6/4,,2/5,,
{8}3/6,4h[8:5],,,2,,1b,,
{8}2/1,,7,,1,3,2,4,
{8}7/8,,2,,8,6,7,5,
{8}4/3,,6,,4,2,3,1,
{8}6/5,,3,,5,7,6,8,
{8}2/1,6,6/7,6,6/1,3,2/6,4,
{8}8/7,,2,,2/8,6,7/2,5,
{8}4/3,,6,,4/6,2,6/3,1,
{8}6/5,,3,,5,7,4-8[2:1],,
{16}3,,,2,,,1,,,,5/3,,,,6/4,,
{8},1,2,3,4/5h[4:1],,6<2[2:1],,
{16}3,,,4,,,4,,,,4/1,,,,3/2,,
{8},8,7,6,5/4h[4:1],,3>7[2:1],,
{16}6,,,5,,,5,,,,8/5,,,,7/6,,
{8},1,7,5,8/6h[4:1],,8>4[2:1],,
{16}4,,,6,,,7,,,,2/1,,,,8/7,,
{8},8,2,4,1/3h[4:1],,8h[1:2],,
{4}1,2,3,4,
{4}5,6,7,1b,
{8}6,5,4,3,2,1,8,7,
{8}6,5,4,3,2,1,8-3[4:1],,
{4}4-7[4:1],6-1[4:1],2-5[4:1],7-2[4:1],
{4}1-4[4:1],3-6[4:1],5-8[4:1],7^4[4:1],
{4}5^2[4:1],3^8[4:1],1^6[4:1],7^4[4:1],
{4}5^2[4:1],3^8[2:1],,,,
E
